cjoint

Publicité


Publicité

Format du document : text/plain

Prévisualisation

ÿþGeneral
ID : 1 (0x1)
Complete name : K:\VIDEO\Django.Unchained.2012.720P.HDRiP.TrueFrench.AC3.SubForces.x264-HDLight.m2ts
Format : BDAV
Format/Info : Blu-ray Video
File size : 3.06 GiB
Duration : 2h 45mn
Overall bit rate mode : Variable
Overall bit rate : 2 651 Kbps
Maximum Overall bit rate : 35.5 Mbps

Video
ID : 4113 (0x1011)
Menu ID : 1 (0x1)
Format : AVC
Format/Info : Advanced Video Codec
Format profile : High@L4.1
Format settings, CABAC : Yes
Format settings, ReFrames : 5 frames
Codec ID : 27
Duration : 2h 45mn
Bit rate mode : Variable
Bit rate : 2 089 Kbps
Maximum bit rate : 40.0 Mbps
Width : 1 280 pixels
Height : 534 pixels
Display aspect ratio : 2.40:1
Frame rate : 23.976 fps
Color space : YUV
Chroma subsampling : 4:2:0
Bit depth : 8 bits
Scan type : Progressive
Bits/(Pixel*Frame) : 0.127
Stream size : 2.41 GiB (79%)
Language : English

Audio
ID : 4352 (0x1100)
Menu ID : 1 (0x1)
Format : AC-3
Format/Info : Audio Coding 3
Mode extension : CM (complete main)
Codec ID : 129
Duration : 2h 45mn
Bit rate mode : Constant
Bit rate : 448 Kbps
Channel(s) : 6 channels
Channel positions : Front: L C R, Side: L R, LFE
Sampling rate : 48.0 KHz
Bit depth : 16 bits
Compression mode : Lossy
Stream size : 530 MiB (17%)
Language : French


Publicité


Signaler le contenu de ce document

Publicité